• How to play the video with wmv3_crystalhd codec?


    [[email protected] MPD-037]$ mpv '/home/user/下載/MPD-037/MPD-037.mkv' 
    Playing: /home/user/下載/MPD-037/MPD-037.mkv
     (+) Video --vid=1 (*) (wmv3 720x480 29.970fps)
     (+) Audio --aid=1 --alang=jpn (*) (mp3 2ch 24000Hz)
    File tags:
     Title: Exhibitionism contribution H-mi 2 [MPD-037]
    WARNING: radv is not a conformant vulkan implementation, testing use only.
    [ffmpeg/video] wmv3: Old interlaced mode is not supported
    Could not open codec.
    [ffmpeg/video] wmv3: Old interlaced mode is not supported
    Could not open codec.
    Decoder init failed for wmv3
    Failed to initialize a decoder for codec 'wmv3'.
    Video: no video
    
    General
    Unique ID                                : 196195433689406468523163191482998670301 (0x9399DDB6BA2E2A4198216369FA4D43DD)
    Complete name                            : MPD-037.mkv
    Format                                   : Matroska
    Format version                           : Version 4 / Version 2
    File size                                : 2.13 GiB
    Duration                                 : 1 h 36 min
    Overall bit rate                         : 3 160 kb/s
    Movie name                               : Exhibitionism contribution H-mi 2 [MPD-037]
    Encoded date                             : UTC 2015-12-06 16:30:07
    Writing application                      : mkvmerge v8.6.1 ('Flying') 64bit
    Writing library                          : libebml v1.3.3 + libmatroska v1.4.4
    
    Video
    ID                                       : 1
    Format                                   : VC-1
    Codec ID                                 : V_MS/VFW/FOURCC / WMV3
    Codec ID/Info                            : Windows Media Video 9
    Codec ID/Hint                            : WMV3
    Duration                                 : 1 h 36 min
    Bit rate                                 : 3 102 kb/s
    Width                                    : 720 pixels
    Height                                   : 480 pixels
    Display aspect ratio                     : 4:3
    Frame rate mode                          : Constant
    Frame rate                               : 29.970 (29970/1000) FPS
    Standard                                 : NTSC
    Bit depth                                : 8 bits
    Compression mode                         : Lossy
    Bits/(Pixel*Frame)                       : 0.300
    Stream size                              : 2.09 GiB (98%)
    Language                                 : Japanese
    Default                                  : Yes
    Forced                                   : No
    
    Audio
    ID                                       : 2
    Format                                   : MPEG Audio
    Format version                           : Version 2
    Format profile                           : Layer 3
    Format settings                          : Joint stereo / Intensity Stereo
    Codec ID                                 : A_MPEG/L3
    Codec ID/Hint                            : MP3
    Duration                                 : 1 h 36 min
    Bit rate mode                            : Constant
    Bit rate                                 : 56.0 kb/s
    Channel(s)                               : 2 channels
    Sampling rate                            : 24.0 kHz
    Frame rate                               : 41.667 FPS (576 SPF)
    Compression mode                         : Lossy
    Stream size                              : 38.7 MiB (2%)
    Language                                 : Japanese
    Default                                  : Yes
    Forced                                   : No
    
  • @s9209122222 said in How to play the video with wmv3_crystalhd codec?:

    wmv3

    May need codecs installed yaourt -S codecs and use mplayer to play the file…

    [updates once a week] = [90% less problems]
    antergos:_rescue
    how to add system logs:
    wget http://bit.ly/2GCG9k2 && sh 2GCG9k2
    :handshake: donate antergos

  • @joekamprad said in How to play the video with wmv3_crystalhd codec?:

    yaourt -S codecs

    needs to be

    yaourt -S codecs64

    [updates once a week] = [90% less problems]
    antergos:_rescue
    how to add system logs:
    wget http://bit.ly/2GCG9k2 && sh 2GCG9k2
    :handshake: donate antergos

video32 codec2 wmv3crystalhd1 Posts 3Views 200
Log in to reply
Bloom Email Optin Plugin

Looks like your connection to Antergos Community Forum was lost, please wait while we try to reconnect.